osu file format v14

[General]
AudioFilename: Usatei.mp3
AudioLeadIn: 1500
PreviewTime: 156698
Countdown: 0
SampleSet: Normal
StackLeniency: 0.5
Mode: 1
LetterboxInBreaks: 0
WidescreenStoryboard: 0

[Editor]
Bookmarks: 55645
DistanceSpacing: 1.3
BeatDivisor: 4
GridSize: 32
TimelineZoom: 1

[Metadata]
Title:Usatei 2011
TitleUnicode:Usatei 2011
Artist:IOSYS
ArtistUnicode:IOSYS
Creator:InC0nceNtrateD
Version:Nwolf's Muzukashii
Source:Touhou
Tags:Toho Remake Tewi Carrot Starzd Nwolf kagome cool&create
BeatmapID:272585
BeatmapSetID:98271

[Difficulty]
HPDrainRate:5
CircleSize:4
OverallDifficulty:5
ApproachRate:5
SliderMultiplier:1.4
SliderTickRate:1

[Events]
//Background and Video events
0,0,"TewiTaikoBG.jpg",0,0
Video,0,"Usatei 2011.avi",0,0
//Break Periods
//Storyboard Layer 0 (Background)
//Storyboard Layer 1 (Fail)
//Storyboard Layer 2 (Pass)
//Storyboard Layer 3 (Foreground)
//Storyboard Sound Samples
//Background Colour Transformations
3,100,163,162,255

[TimingPoints]
3856,315.789473684211,4,1,0,85,1,0
55645,-95.2380952380952,4,1,0,85,0,1
75856,-92.5925925925926,4,1,0,85,0,1
78382,-90.0900900900901,4,1,0,85,0,1
80908,-87.719298245614,4,1,0,85,0,1
83434,-85.4700854700855,4,1,0,85,0,1
85961,-83.3333333333333,4,1,0,85,0,1
88487,-81.3008130081301,4,1,0,85,0,1
91013,-79.3650793650794,4,1,0,85,0,1
93540,-76.9230769230769,4,1,0,85,0,1
96066,-100,4,1,0,85,0,0
156698,-95.2380952380952,4,1,0,85,0,1
165540,-95.2380952380952,4,1,0,85,0,0
166803,-95.2380952380952,4,1,0,85,0,1
176277,-95.2380952380952,4,1,0,85,0,0

[Colours]
Combo1 : 232,208,77
Combo2 : 255,55,61
Combo3 : 249,106,245
Combo4 : 226,146,24

[HitObjects]
256,192,3698,12,0,5119,0:0:0:0:
320,128,5434,5,8,0:0:0:0:
320,128,6066,1,8,0:0:0:0:
192,128,6382,1,0,0:0:0:0:
192,128,6540,1,0,0:0:0:0:
320,128,6698,1,8,0:0:0:0:
320,128,7329,1,8,0:0:0:0:
192,256,7487,1,4,0:0:0:0:
192,256,7645,1,4,0:0:0:0:
320,128,7961,1,8,0:0:0:0:
320,128,8592,1,8,0:0:0:0:
192,128,8750,1,0,0:0:0:0:
192,128,8908,1,0,0:0:0:0:
320,128,9224,1,8,0:0:0:0:
192,256,9540,1,4,0:0:0:0:
192,256,9856,1,4,0:0:0:0:
192,128,10171,1,0,0:0:0:0:
192,128,10329,1,0,0:0:0:0:
320,128,10487,1,8,0:0:0:0:
192,128,10803,1,0,0:0:0:0:
192,128,10961,1,0,0:0:0:0:
320,128,11119,1,8,0:0:0:0:
192,128,11434,1,0,0:0:0:0:
192,128,11592,1,0,0:0:0:0:
320,128,11750,1,8,0:0:0:0:
192,128,12066,1,0,0:0:0:0:
320,128,12224,1,8,0:0:0:0:
320,128,12382,1,8,0:0:0:0:
192,256,12698,1,0,0:0:0:0:
320,128,13013,1,8,0:0:0:0:
192,256,13329,1,0,0:0:0:0:
320,128,13645,1,8,0:0:0:0:
192,256,13961,1,0,0:0:0:0:
320,128,14119,1,8,0:0:0:0:
192,256,14277,1,0,0:0:0:0:
320,128,14434,1,8,0:0:0:0:
192,256,14592,1,0,0:0:0:0:
320,128,14908,1,8,0:0:0:0:
320,128,15066,1,8,0:0:0:0:
192,128,15224,1,0,0:0:0:0:
320,128,15382,1,8,0:0:0:0:
320,128,15698,1,8,0:0:0:0:
320,128,16013,1,8,0:0:0:0:
320,128,16329,1,8,0:0:0:0:
192,128,16487,1,0,0:0:0:0:
320,128,16645,1,8,0:0:0:0:
320,128,16961,1,8,0:0:0:0:
192,128,17119,1,0,0:0:0:0:
192,128,17277,1,0,0:0:0:0:
320,128,17434,1,8,0:0:0:0:
192,128,17750,1,0,0:0:0:0:
320,128,17908,1,8,0:0:0:0:
320,128,17987,1,8,0:0:0:0:
320,128,18066,1,8,0:0:0:0:
320,128,18224,1,8,0:0:0:0:
320,128,18540,1,8,0:0:0:0:
192,128,18698,1,0,0:0:0:0:
320,128,18856,1,8,0:0:0:0:
320,128,19171,1,8,0:0:0:0:
320,128,19329,1,0,0:0:0:0:
192,128,19487,1,8,0:0:0:0:
192,256,19645,1,4,0:0:0:0:
320,256,19961,1,12,0:0:0:0:
192,128,20277,1,0,0:0:0:0:
320,128,20434,1,8,0:0:0:0:
320,128,20592,1,8,0:0:0:0:
320,128,20750,1,8,0:0:0:0:
320,128,21066,1,8,0:0:0:0:
192,128,21224,1,0,0:0:0:0:
320,128,21382,1,8,0:0:0:0:
320,128,21697,1,8,0:0:0:0:
320,128,21855,1,0,0:0:0:0:
192,128,22013,1,8,0:0:0:0:
192,128,22171,1,0,0:0:0:0:
192,128,22329,1,0,0:0:0:0:
320,128,22487,1,8,0:0:0:0:
192,128,22803,1,0,0:0:0:0:
320,128,22961,1,8,0:0:0:0:
320,128,23040,1,8,0:0:0:0:
320,128,23119,1,8,0:0:0:0:
320,128,23277,1,8,0:0:0:0:
320,128,23592,1,8,0:0:0:0:
192,128,23750,1,0,0:0:0:0:
320,128,23908,1,8,0:0:0:0:
192,128,24066,1,0,0:0:0:0:
192,128,24224,1,0,0:0:0:0:
320,128,24382,1,8,0:0:0:0:
192,128,24540,1,0,0:0:0:0:
192,128,24698,1,0,0:0:0:0:
192,128,25329,5,0,0:0:0:0:
192,128,25645,1,0,0:0:0:0:
192,128,25961,1,0,0:0:0:0:
192,128,26277,1,0,0:0:0:0:
192,128,26434,1,0,0:0:0:0:
192,128,26592,1,0,0:0:0:0:
192,128,26908,1,0,0:0:0:0:
192,128,27224,1,0,0:0:0:0:
192,128,27540,1,0,0:0:0:0:
320,128,27698,1,8,0:0:0:0:
192,128,27856,1,0,0:0:0:0:
320,128,28171,1,8,0:0:0:0:
192,128,28487,1,0,0:0:0:0:
320,128,28803,1,8,0:0:0:0:
192,128,28961,1,0,0:0:0:0:
192,128,29119,1,0,0:0:0:0:
320,128,29434,1,8,0:0:0:0:
192,128,29750,1,0,0:0:0:0:
320,128,30066,1,8,0:0:0:0:
320,128,30224,1,8,0:0:0:0:
192,128,30382,1,0,0:0:0:0:
320,128,30698,1,8,0:0:0:0:
320,128,30856,1,8,0:0:0:0:
192,128,31013,1,0,0:0:0:0:
320,128,31171,1,0,0:0:0:0:
320,128,31329,1,8,0:0:0:0:
192,128,31645,1,0,0:0:0:0:
192,128,31803,1,0,0:0:0:0:
320,128,31961,1,8,0:0:0:0:
320,128,32119,1,8,0:0:0:0:
192,128,32277,1,0,0:0:0:0:
320,128,32592,1,8,0:0:0:0:
192,128,32908,1,0,0:0:0:0:
192,128,33066,1,0,0:0:0:0:
320,128,33224,1,8,0:0:0:0:
320,128,33382,1,8,0:0:0:0:
192,128,33540,1,0,0:0:0:0:
320,128,33856,1,8,0:0:0:0:
192,128,34171,1,0,0:0:0:0:
192,128,34329,1,0,0:0:0:0:
320,128,34487,1,8,0:0:0:0:
192,128,34803,1,0,0:0:0:0:
320,128,34961,1,8,0:0:0:0:
320,128,35119,1,8,0:0:0:0:
320,128,35434,1,0,0:0:0:0:
192,128,35592,1,0,0:0:0:0:
320,128,35750,1,8,0:0:0:0:
192,128,36066,1,0,0:0:0:0:
192,128,36224,1,0,0:0:0:0:
320,128,36382,1,8,0:0:0:0:
320,128,36698,1,8,0:0:0:0:
192,128,36856,1,0,0:0:0:0:
320,128,37013,1,8,0:0:0:0:
192,128,37171,1,0,0:0:0:0:
192,128,37329,1,0,0:0:0:0:
320,128,37487,1,8,0:0:0:0:
320,128,37566,1,8,0:0:0:0:
320,128,37645,1,8,0:0:0:0:
192,128,37961,1,0,0:0:0:0:
192,128,38119,1,0,0:0:0:0:
320,128,38277,1,8,0:0:0:0:
192,128,38592,1,0,0:0:0:0:
192,128,38750,1,0,0:0:0:0:
320,128,38908,1,8,0:0:0:0:
192,128,39224,1,0,0:0:0:0:
192,128,39382,1,0,0:0:0:0:
320,128,39540,1,8,0:0:0:0:
192,128,39698,1,0,0:0:0:0:
192,128,39856,1,8,0:0:0:0:
320,128,40171,1,8,0:0:0:0:
192,128,40487,1,0,0:0:0:0:
192,128,40566,1,0,0:0:0:0:
192,128,40645,1,0,0:0:0:0:
320,128,40803,1,8,0:0:0:0:
320,128,41119,1,8,0:0:0:0:
192,128,41277,1,0,0:0:0:0:
320,128,41434,1,8,0:0:0:0:
320,128,41750,1,8,0:0:0:0:
320,128,42066,1,0,0:0:0:0:
192,128,42382,1,8,0:0:0:0:
320,128,42698,1,8,0:0:0:0:
192,128,43013,1,0,0:0:0:0:
192,128,43171,1,0,0:0:0:0:
320,128,43329,1,8,0:0:0:0:
320,128,43645,1,8,0:0:0:0:
192,128,43803,1,0,0:0:0:0:
320,128,43961,1,8,0:0:0:0:
192,128,44277,1,0,0:0:0:0:
192,128,44434,1,0,0:0:0:0:
320,128,44592,1,8,0:0:0:0:
320,128,44750,1,8,0:0:0:0:
320,128,44908,1,0,0:0:0:0:
320,128,45066,1,8,0:0:0:0:
320,128,45145,1,8,0:0:0:0:
320,128,45224,1,8,0:0:0:0:
192,128,45540,1,0,0:0:0:0:
320,128,45856,1,8,0:0:0:0:
192,128,46013,1,0,0:0:0:0:
320,128,46171,1,8,0:0:0:0:
320,128,46487,1,8,0:0:0:0:
192,128,46645,1,0,0:0:0:0:
320,128,46803,1,8,0:0:0:0:
320,128,46882,1,8,0:0:0:0:
320,128,46961,1,8,0:0:0:0:
320,128,47119,1,8,0:0:0:0:
192,128,47277,1,0,0:0:0:0:
320,128,47434,1,8,0:0:0:0:
192,128,47750,1,0,0:0:0:0:
192,128,48066,1,0,0:0:0:0:
192,128,48224,1,0,0:0:0:0:
320,128,48382,1,8,0:0:0:0:
192,128,48540,1,0,0:0:0:0:
320,128,48698,1,8,0:0:0:0:
320,128,49013,1,8,0:0:0:0:
192,128,49171,1,0,0:0:0:0:
320,128,49329,1,8,0:0:0:0:
320,128,49408,1,8,0:0:0:0:
320,128,49487,1,8,0:0:0:0:
320,128,49645,1,8,0:0:0:0:
192,128,49803,1,0,0:0:0:0:
320,128,49961,1,8,0:0:0:0:
192,128,50277,1,0,0:0:0:0:
192,128,50434,1,0,0:0:0:0:
320,128,50592,1,8,0:0:0:0:
192,128,50750,1,0,0:0:0:0:
320,128,50908,1,8,0:0:0:0:
192,128,51224,1,0,0:0:0:0:
320,128,51382,1,8,0:0:0:0:
320,128,51540,1,8,0:0:0:0:
320,128,51856,1,8,0:0:0:0:
320,128,51934,1,8,0:0:0:0:
320,128,52013,1,8,0:0:0:0:
320,128,52171,1,8,0:0:0:0:
192,128,52329,1,0,0:0:0:0:
320,128,52487,1,8,0:0:0:0:
192,128,52803,1,0,0:0:0:0:
192,128,53119,1,0,0:0:0:0:
192,128,53198,1,0,0:0:0:0:
192,128,53277,1,0,0:0:0:0:
192,128,53434,1,0,0:0:0:0:
192,128,53592,1,0,0:0:0:0:
192,128,53750,1,0,0:0:0:0:
192,128,54066,1,0,0:0:0:0:
192,128,54224,1,0,0:0:0:0:
320,128,54382,1,8,0:0:0:0:
192,128,54540,1,0,0:0:0:0:
320,128,54698,1,8,0:0:0:0:
192,128,54856,1,0,0:0:0:0:
320,128,55013,1,8,0:0:0:0:
320,128,55171,1,8,0:0:0:0:
320,128,55329,1,8,0:0:0:0:
320,256,55645,5,12,0:0:0:0:
192,128,55961,1,0,0:0:0:0:
320,128,56119,1,8,0:0:0:0:
192,128,56434,1,0,0:0:0:0:
320,128,56592,1,8,0:0:0:0:
320,128,56750,1,8,0:0:0:0:
320,128,56908,1,8,0:0:0:0:
320,128,57224,1,8,0:0:0:0:
192,128,57382,1,0,0:0:0:0:
192,128,57540,1,0,0:0:0:0:
192,128,57698,1,0,0:0:0:0:
320,128,57856,1,8,0:0:0:0:
192,128,58013,1,0,0:0:0:0:
320,128,58171,1,8,0:0:0:0:
320,128,58487,1,8,0:0:0:0:
320,128,58645,1,8,0:0:0:0:
320,128,58961,1,8,0:0:0:0:
192,128,59119,1,0,0:0:0:0:
320,128,59277,1,8,0:0:0:0:
320,256,59434,1,12,0:0:0:0:
320,256,59750,1,12,0:0:0:0:
320,256,60066,1,12,0:0:0:0:
320,256,60382,1,12,0:0:0:0:
192,128,60540,1,0,0:0:0:0:
320,128,60698,1,8,0:0:0:0:
192,128,61013,1,0,0:0:0:0:
320,128,61171,1,8,0:0:0:0:
192,128,61487,1,0,0:0:0:0:
192,128,61645,1,0,0:0:0:0:
320,128,61803,1,8,0:0:0:0:
320,128,61961,1,8,0:0:0:0:
320,128,62277,1,8,0:0:0:0:
192,128,62435,1,0,0:0:0:0:
192,128,62593,1,0,0:0:0:0:
192,128,62751,1,0,0:0:0:0:
320,128,62909,1,8,0:0:0:0:
320,128,63066,1,8,0:0:0:0:
320,128,63224,1,8,0:0:0:0:
320,128,63540,1,8,0:0:0:0:
320,128,63698,1,8,0:0:0:0:
320,128,64013,1,8,0:0:0:0:
192,128,64171,1,0,0:0:0:0:
320,128,64329,1,8,0:0:0:0:
320,256,64487,1,12,0:0:0:0:
320,256,64803,1,12,0:0:0:0:
320,256,65119,1,12,0:0:0:0:
320,256,65434,1,12,0:0:0:0:
192,128,65592,1,0,0:0:0:0:
320,256,65750,1,12,0:0:0:0:
192,128,66066,1,0,0:0:0:0:
320,128,66224,1,8,0:0:0:0:
192,128,66540,1,0,0:0:0:0:
192,128,66698,1,0,0:0:0:0:
320,128,66856,1,8,0:0:0:0:
320,128,67013,1,8,0:0:0:0:
320,128,67329,1,8,0:0:0:0:
320,128,67487,1,8,0:0:0:0:
320,128,67645,1,8,0:0:0:0:
192,128,67803,1,0,0:0:0:0:
192,128,67961,1,0,0:0:0:0:
320,128,68119,1,8,0:0:0:0:
320,128,68277,1,8,0:0:0:0:
320,128,68592,1,8,0:0:0:0:
320,128,68750,1,8,0:0:0:0:
320,128,69066,1,8,0:0:0:0:
192,128,69224,1,0,0:0:0:0:
320,128,69382,1,8,0:0:0:0:
320,256,69540,1,12,0:0:0:0:
320,256,69856,1,12,0:0:0:0:
320,256,70171,1,12,0:0:0:0:
320,256,70487,1,12,0:0:0:0:
320,128,70803,1,8,0:0:0:0:
192,128,71119,1,0,0:0:0:0:
320,128,71277,1,8,0:0:0:0:
192,128,71592,1,0,0:0:0:0:
192,128,71750,1,0,0:0:0:0:
320,128,71908,1,8,0:0:0:0:
320,128,72066,1,8,0:0:0:0:
192,128,72382,1,0,0:0:0:0:
320,128,72540,1,8,0:0:0:0:
192,128,72698,1,0,0:0:0:0:
320,128,72856,1,8,0:0:0:0:
192,128,73013,1,0,0:0:0:0:
320,128,73171,1,8,0:0:0:0:
320,128,73329,1,8,0:0:0:0:
320,128,73645,1,8,0:0:0:0:
320,128,73803,1,8,0:0:0:0:
320,128,74119,1,8,0:0:0:0:
192,128,74277,1,0,0:0:0:0:
320,128,74434,1,8,0:0:0:0:
320,256,74592,1,12,0:0:0:0:
320,256,74908,1,12,0:0:0:0:
320,256,75224,1,12,0:0:0:0:
320,256,75540,1,12,0:0:0:0:
320,128,75856,1,8,0:0:0:0:
320,128,76171,1,8,0:0:0:0:
320,128,76487,1,8,0:0:0:0:
192,128,76645,1,0,0:0:0:0:
320,128,76803,1,8,0:0:0:0:
320,128,77119,1,8,0:0:0:0:
192,128,77277,1,0,0:0:0:0:
320,128,77434,1,8,0:0:0:0:
192,128,77592,1,0,0:0:0:0:
320,128,77750,1,8,0:0:0:0:
192,128,77908,1,0,0:0:0:0:
320,128,78066,1,8,0:0:0:0:
320,128,78382,1,8,0:0:0:0:
320,128,78698,1,8,0:0:0:0:
320,128,78856,1,8,0:0:0:0:
192,128,79013,1,0,0:0:0:0:
192,128,79329,1,0,0:0:0:0:
192,128,79487,1,0,0:0:0:0:
320,128,79645,1,8,0:0:0:0:
192,128,79803,1,0,0:0:0:0:
320,128,79961,1,8,0:0:0:0:
192,128,80119,1,0,0:0:0:0:
320,128,80277,1,8,0:0:0:0:
192,128,80434,1,0,0:0:0:0:
320,128,80592,1,8,0:0:0:0:
192,256,80908,1,4,0:0:0:0:
320,128,81224,1,8,0:0:0:0:
192,128,81382,1,0,0:0:0:0:
192,128,81540,1,0,0:0:0:0:
320,128,81698,1,8,0:0:0:0:
320,128,81856,1,8,0:0:0:0:
192,128,82171,1,0,0:0:0:0:
320,128,82329,1,0,0:0:0:0:
320,128,82487,1,8,0:0:0:0:
192,128,82645,1,0,0:0:0:0:
320,128,82803,1,8,0:0:0:0:
192,128,82961,1,0,0:0:0:0:
320,128,83119,1,8,0:0:0:0:
320,128,83434,1,8,0:0:0:0:
320,128,83750,1,8,0:0:0:0:
192,128,83908,1,0,0:0:0:0:
320,128,84066,1,8,0:0:0:0:
320,128,84382,1,8,0:0:0:0:
192,128,84540,1,0,0:0:0:0:
192,128,84698,1,0,0:0:0:0:
320,128,85013,1,8,0:0:0:0:
192,128,85171,1,0,0:0:0:0:
320,128,85329,1,8,0:0:0:0:
192,128,85487,1,0,0:0:0:0:
320,128,85645,1,8,0:0:0:0:
320,256,85961,1,12,0:0:0:0:
320,128,86277,1,8,0:0:0:0:
320,128,86434,1,8,0:0:0:0:
320,128,86592,1,8,0:0:0:0:
320,128,86908,1,8,0:0:0:0:
320,128,87066,1,8,0:0:0:0:
192,128,87224,1,0,0:0:0:0:
320,128,87540,1,8,0:0:0:0:
192,128,87698,1,0,0:0:0:0:
320,128,87856,1,8,0:0:0:0:
192,128,88013,1,0,0:0:0:0:
320,128,88171,1,8,0:0:0:0:
192,128,88487,1,0,0:0:0:0:
320,128,88645,1,8,0:0:0:0:
192,128,88803,1,0,0:0:0:0:
320,128,88961,1,8,0:0:0:0:
192,128,89119,1,0,0:0:0:0:
192,128,89434,1,0,0:0:0:0:
320,128,89750,1,8,0:0:0:0:
192,128,89908,1,0,0:0:0:0:
320,128,90066,1,8,0:0:0:0:
192,128,90224,1,0,0:0:0:0:
320,128,90382,1,8,0:0:0:0:
320,128,90698,1,8,0:0:0:0:
320,256,91013,1,12,0:0:0:0:
192,128,91329,1,0,0:0:0:0:
192,128,91645,1,0,0:0:0:0:
192,128,91961,1,0,0:0:0:0:
320,256,92277,1,12,0:0:0:0:
192,128,92592,1,0,0:0:0:0:
192,128,92908,1,0,0:0:0:0:
192,128,93224,1,0,0:0:0:0:
320,256,93540,1,12,0:0:0:0:
192,128,93856,1,0,0:0:0:0:
320,256,94171,1,12,0:0:0:0:
192,128,94487,1,0,0:0:0:0:
320,256,94803,1,12,0:0:0:0:
320,256,95119,1,12,0:0:0:0:
320,256,95434,1,12,0:0:0:0:
192,128,95592,1,0,0:0:0:0:
320,256,95750,1,12,0:0:0:0:
192,128,96066,5,0,0:0:0:0:
320,128,96698,1,8,0:0:0:0:
192,128,97013,1,0,0:0:0:0:
192,128,97329,1,0,0:0:0:0:
192,128,97645,1,0,0:0:0:0:
320,128,97961,1,8,0:0:0:0:
192,256,98434,1,4,0:0:0:0:
192,256,98592,1,4,0:0:0:0:
320,128,99224,1,8,0:0:0:0:
192,128,99540,1,0,0:0:0:0:
192,128,99856,1,0,0:0:0:0:
192,128,100171,1,0,0:0:0:0:
320,256,100487,1,12,0:0:0:0:
320,256,100803,1,12,0:0:0:0:
320,256,101119,1,12,0:0:0:0:
320,128,101750,1,8,0:0:0:0:
192,128,102066,1,0,0:0:0:0:
320,128,102382,1,8,0:0:0:0:
192,128,102698,1,0,0:0:0:0:
320,128,103013,1,8,0:0:0:0:
320,256,103645,1,12,0:0:0:0:
320,128,103961,1,8,0:0:0:0:
192,128,104119,1,0,0:0:0:0:
320,256,104277,1,12,0:0:0:0:
320,128,104592,1,8,0:0:0:0:
192,128,104750,1,0,0:0:0:0:
320,256,104908,1,12,0:0:0:0:
192,256,105224,1,4,0:0:0:0:
320,256,105540,1,12,0:0:0:0:
320,256,105856,1,12,0:0:0:0:
192,128,106171,1,0,0:0:0:0:
320,128,106329,1,8,0:0:0:0:
192,128,106487,1,0,0:0:0:0:
320,128,106645,1,8,0:0:0:0:
192,128,106803,1,0,0:0:0:0:
320,128,106961,1,8,0:0:0:0:
192,128,107119,1,0,0:0:0:0:
320,128,107434,1,8,0:0:0:0:
192,128,107592,1,0,0:0:0:0:
320,128,107750,1,8,0:0:0:0:
192,128,107908,1,0,0:0:0:0:
320,128,108066,1,8,0:0:0:0:
192,128,108224,1,0,0:0:0:0:
192,128,108382,1,0,0:0:0:0:
320,128,108698,1,8,0:0:0:0:
192,128,108856,1,0,0:0:0:0:
320,128,109013,1,8,0:0:0:0:
320,128,109329,1,8,0:0:0:0:
192,128,109645,1,0,0:0:0:0:
320,128,109961,1,8,0:0:0:0:
320,128,110119,1,8,0:0:0:0:
320,128,110277,1,8,0:0:0:0:
320,128,110592,1,8,0:0:0:0:
320,128,110908,1,8,0:0:0:0:
192,128,111224,1,0,0:0:0:0:
320,128,111382,1,8,0:0:0:0:
192,128,111540,1,0,0:0:0:0:
320,128,111698,1,8,0:0:0:0:
192,128,111856,1,0,0:0:0:0:
320,128,112013,1,8,0:0:0:0:
320,128,112171,1,8,0:0:0:0:
320,128,112487,1,8,0:0:0:0:
192,128,112645,1,0,0:0:0:0:
320,128,112803,1,8,0:0:0:0:
192,128,112961,1,0,0:0:0:0:
320,128,113119,1,8,0:0:0:0:
192,128,113277,1,0,0:0:0:0:
192,128,113434,1,0,0:0:0:0:
320,128,113750,1,8,0:0:0:0:
320,128,114066,1,8,0:0:0:0:
192,128,114224,1,0,0:0:0:0:
320,128,114382,1,8,0:0:0:0:
320,128,114461,1,8,0:0:0:0:
320,128,114540,1,8,0:0:0:0:
320,128,114698,1,8,0:0:0:0:
192,128,115013,1,0,0:0:0:0:
192,128,115329,1,0,0:0:0:0:
320,128,115487,1,8,0:0:0:0:
192,128,115645,1,0,0:0:0:0:
192,128,115724,1,0,0:0:0:0:
192,128,115803,1,0,0:0:0:0:
192,128,115961,1,0,0:0:0:0:
192,128,116277,1,0,0:0:0:0:
320,128,116434,1,8,0:0:0:0:
192,128,116592,1,0,0:0:0:0:
320,128,116750,1,8,0:0:0:0:
192,128,116908,1,0,0:0:0:0:
320,128,117066,1,8,0:0:0:0:
192,128,117224,1,0,0:0:0:0:
320,128,117382,1,8,0:0:0:0:
320,128,117698,1,8,0:0:0:0:
192,128,117856,1,0,0:0:0:0:
320,128,118013,1,8,0:0:0:0:
320,128,118329,1,8,0:0:0:0:
192,128,118487,1,0,0:0:0:0:
320,128,118645,1,8,0:0:0:0:
320,128,118803,1,8,0:0:0:0:
192,128,118961,1,0,0:0:0:0:
320,128,119119,1,8,0:0:0:0:
320,128,119434,1,8,0:0:0:0:
320,128,119750,1,8,0:0:0:0:
320,128,120066,1,8,0:0:0:0:
192,128,120224,1,0,0:0:0:0:
320,128,120382,1,8,0:0:0:0:
320,128,120698,1,8,0:0:0:0:
320,128,120777,1,8,0:0:0:0:
320,128,120856,1,8,0:0:0:0:
320,128,121013,1,8,0:0:0:0:
192,128,121329,1,0,0:0:0:0:
320,128,121487,1,8,0:0:0:0:
192,128,121645,1,0,0:0:0:0:
320,128,121803,1,8,0:0:0:0:
192,128,121961,1,0,0:0:0:0:
320,128,122119,1,8,0:0:0:0:
320,128,122277,1,8,0:0:0:0:
192,128,122434,1,0,0:0:0:0:
256,192,122592,12,0,123540,0:0:0:0:
320,128,123856,5,8,0:0:0:0:
320,128,124171,1,8,0:0:0:0:
320,128,124487,1,8,0:0:0:0:
320,128,124803,1,8,0:0:0:0:
320,128,124882,1,8,0:0:0:0:
320,128,124961,1,8,0:0:0:0:
192,128,125119,1,0,0:0:0:0:
192,128,125434,1,0,0:0:0:0:
192,128,125750,1,0,0:0:0:0:
192,128,126066,1,0,0:0:0:0:
192,128,126145,1,0,0:0:0:0:
192,128,126224,1,0,0:0:0:0:
192,128,126382,1,0,0:0:0:0:
320,128,126540,1,8,0:0:0:0:
192,128,126698,1,0,0:0:0:0:
320,128,126856,1,8,0:0:0:0:
192,128,127013,1,0,0:0:0:0:
320,128,127171,1,8,0:0:0:0:
320,128,127329,1,8,0:0:0:0:
320,128,127645,1,8,0:0:0:0:
192,128,127803,1,0,0:0:0:0:
320,128,127961,1,8,0:0:0:0:
192,128,128119,1,0,0:0:0:0:
320,128,128277,1,8,0:0:0:0:
192,128,128434,1,0,0:0:0:0:
320,128,128592,1,8,0:0:0:0:
320,128,128908,1,8,0:0:0:0:
320,128,129224,1,8,0:0:0:0:
320,128,129540,1,8,0:0:0:0:
192,128,129856,1,8,0:0:0:0:
192,128,130013,1,8,0:0:0:0:
192,128,130171,1,0,0:0:0:0:
192,128,130487,1,0,0:0:0:0:
192,128,130803,1,0,0:0:0:0:
320,128,131119,1,8,0:0:0:0:
320,128,131277,1,0,0:0:0:0:
320,256,131434,1,12,0:0:0:0:
192,128,131592,1,0,0:0:0:0:
320,128,131750,1,8,0:0:0:0:
320,128,132066,1,8,0:0:0:0:
192,128,132224,1,0,0:0:0:0:
320,128,132382,1,8,0:0:0:0:
320,256,132698,1,12,0:0:0:0:
192,128,132856,1,0,0:0:0:0:
320,128,133013,1,8,0:0:0:0:
320,128,133329,1,8,0:0:0:0:
192,128,133487,1,0,0:0:0:0:
320,128,133645,1,8,0:0:0:0:
320,256,133961,1,12,0:0:0:0:
192,128,134277,1,0,0:0:0:0:
192,128,134434,1,0,0:0:0:0:
192,128,134513,1,0,0:0:0:0:
192,128,134592,1,0,0:0:0:0:
192,128,134750,1,0,0:0:0:0:
320,128,134908,1,8,0:0:0:0:
320,256,135224,1,12,0:0:0:0:
192,128,135540,1,0,0:0:0:0:
192,128,135698,1,0,0:0:0:0:
192,128,135777,1,0,0:0:0:0:
192,128,135856,1,0,0:0:0:0:
320,128,136013,1,8,0:0:0:0:
320,128,136171,1,8,0:0:0:0:
192,128,136487,1,0,0:0:0:0:
192,128,136803,1,0,0:0:0:0:
320,128,137119,1,8,0:0:0:0:
320,128,137434,1,8,0:0:0:0:
192,128,137750,1,0,0:0:0:0:
192,128,138066,1,0,0:0:0:0:
192,128,138382,1,0,0:0:0:0:
192,128,138619,1,0,0:0:0:0:
320,128,138856,1,8,0:0:0:0:
320,128,139013,1,8,0:0:0:0:
192,128,139171,1,0,0:0:0:0:
320,128,139329,1,8,0:0:0:0:
192,128,139487,1,0,0:0:0:0:
320,128,139803,1,8,0:0:0:0:
192,128,139961,1,0,0:0:0:0:
320,128,140119,1,8,0:0:0:0:
320,128,140434,1,8,0:0:0:0:
192,128,140592,1,0,0:0:0:0:
320,128,140750,1,8,0:0:0:0:
320,128,141066,1,8,0:0:0:0:
192,128,141224,1,0,0:0:0:0:
192,128,141382,1,0,0:0:0:0:
192,128,141461,1,0,0:0:0:0:
192,128,141540,1,0,0:0:0:0:
192,128,141856,1,0,0:0:0:0:
320,128,142171,1,8,0:0:0:0:
320,128,142487,1,8,0:0:0:0:
192,128,142803,1,0,0:0:0:0:
320,128,143119,1,8,0:0:0:0:
192,128,143434,1,0,0:0:0:0:
192,128,143671,1,0,0:0:0:0:
320,128,143908,1,8,0:0:0:0:
320,128,144066,1,8,0:0:0:0:
320,128,144382,1,8,0:0:0:0:
320,128,144698,1,8,0:0:0:0:
192,128,144856,1,0,0:0:0:0:
320,128,145013,1,8,0:0:0:0:
192,128,145171,1,0,0:0:0:0:
192,128,145329,1,0,0:0:0:0:
192,128,145645,1,0,0:0:0:0:
320,256,145961,1,8,0:0:0:0:
192,128,146119,1,0,0:0:0:0:
320,256,146277,1,8,0:0:0:0:
192,128,146434,1,0,0:0:0:0:
192,128,146592,1,0,0:0:0:0:
192,128,146908,1,0,0:0:0:0:
192,128,147066,1,0,0:0:0:0:
320,128,147224,1,8,0:0:0:0:
320,128,147540,1,8,0:0:0:0:
192,128,147698,1,0,0:0:0:0:
192,128,147856,1,0,0:0:0:0:
320,128,148171,1,8,0:0:0:0:
192,128,148329,1,0,0:0:0:0:
192,128,148487,1,0,0:0:0:0:
320,128,148724,1,8,0:0:0:0:
320,128,148961,1,8,0:0:0:0:
320,128,149119,1,8,0:0:0:0:
192,128,149277,1,0,0:0:0:0:
320,128,149434,1,8,0:0:0:0:
192,128,149592,1,0,0:0:0:0:
320,128,149908,1,8,0:0:0:0:
192,128,150066,1,0,0:0:0:0:
320,128,150224,1,8,0:0:0:0:
320,128,150540,1,8,0:0:0:0:
192,128,150698,1,0,0:0:0:0:
320,128,150856,1,8,0:0:0:0:
320,128,151013,1,8,0:0:0:0:
192,128,151171,1,0,0:0:0:0:
192,128,151329,1,8,0:0:0:0:
320,128,151645,1,8,0:0:0:0:
192,128,151961,1,0,0:0:0:0:
320,128,152277,1,8,0:0:0:0:
320,128,152513,1,8,0:0:0:0:
192,128,152750,1,0,0:0:0:0:
320,128,152908,1,8,0:0:0:0:
320,128,153224,1,8,0:0:0:0:
192,128,153382,1,0,0:0:0:0:
320,128,153540,1,8,0:0:0:0:
192,128,153698,1,0,0:0:0:0:
192,128,153856,1,0,0:0:0:0:
192,128,154013,1,0,0:0:0:0:
320,256,154171,1,12,0:0:0:0:
192,128,154487,1,0,0:0:0:0:
320,256,154803,1,12,0:0:0:0:
192,128,155119,1,0,0:0:0:0:
320,256,155434,1,12,0:0:0:0:
192,128,155592,1,0,0:0:0:0:
320,256,155750,1,12,0:0:0:0:
320,256,156066,1,12,0:0:0:0:
192,128,156224,1,0,0:0:0:0:
320,128,156382,1,8,0:0:0:0:
320,128,156540,1,8,0:0:0:0:
192,128,156698,5,0,0:0:0:0:
320,128,156856,1,8,0:0:0:0:
320,128,157013,1,8,0:0:0:0:
320,128,157171,1,8,0:0:0:0:
192,128,157329,1,0,0:0:0:0:
320,128,157487,1,8,0:0:0:0:
320,128,157645,1,8,0:0:0:0:
320,128,157803,1,8,0:0:0:0:
320,128,158119,1,8,0:0:0:0:
320,128,158277,1,8,0:0:0:0:
192,128,158434,1,0,0:0:0:0:
192,128,158592,1,0,0:0:0:0:
320,128,158750,1,8,0:0:0:0:
320,128,158908,1,8,0:0:0:0:
192,128,159224,1,0,0:0:0:0:
320,128,159382,1,8,0:0:0:0:
320,128,159540,1,8,0:0:0:0:
320,128,159698,1,8,0:0:0:0:
192,128,159856,1,0,0:0:0:0:
320,128,160013,1,8,0:0:0:0:
320,128,160171,1,8,0:0:0:0:
192,128,160329,1,0,0:0:0:0:
192,128,160645,1,0,0:0:0:0:
320,128,160803,1,8,0:0:0:0:
192,128,160961,1,0,0:0:0:0:
192,256,161119,1,4,0:0:0:0:
320,256,161434,1,12,0:0:0:0:
192,128,161750,1,0,0:0:0:0:
320,128,161908,1,8,0:0:0:0:
192,128,162066,1,0,0:0:0:0:
320,128,162224,1,8,0:0:0:0:
320,128,162382,1,0,0:0:0:0:
320,128,162540,1,8,0:0:0:0:
320,128,162698,1,8,0:0:0:0:
320,128,162856,1,8,0:0:0:0:
320,128,163013,1,0,0:0:0:0:
320,128,163329,1,8,0:0:0:0:
192,128,163487,1,0,0:0:0:0:
192,128,163645,1,0,0:0:0:0:
320,128,163803,1,8,0:0:0:0:
320,128,163961,1,8,0:0:0:0:
192,128,164119,1,0,0:0:0:0:
192,128,164198,1,0,0:0:0:0:
192,128,164277,1,0,0:0:0:0:
320,128,164434,1,8,0:0:0:0:
320,128,164750,1,8,0:0:0:0:
192,128,164908,1,0,0:0:0:0:
320,128,165066,1,8,0:0:0:0:
320,128,165224,1,8,0:0:0:0:
192,128,165540,1,0,0:0:0:0:
320,128,165698,1,8,0:0:0:0:
320,128,165856,1,8,0:0:0:0:
192,128,166013,1,0,0:0:0:0:
192,128,166171,1,0,0:0:0:0:
192,128,166487,1,0,0:0:0:0:
192,128,166566,1,0,0:0:0:0:
192,128,166645,1,0,0:0:0:0:
192,128,166803,1,0,0:0:0:0:
320,128,166961,1,8,0:0:0:0:
320,128,167119,1,8,0:0:0:0:
320,128,167277,1,8,0:0:0:0:
320,128,167592,1,8,0:0:0:0:
320,128,167750,1,8,0:0:0:0:
320,128,167908,1,8,0:0:0:0:
320,128,168224,1,8,0:0:0:0:
320,128,168382,1,8,0:0:0:0:
192,128,168540,1,0,0:0:0:0:
192,128,168698,1,0,0:0:0:0:
320,128,168856,1,8,0:0:0:0:
320,128,169013,1,8,0:0:0:0:
192,128,169329,1,0,0:0:0:0:
320,128,169487,1,0,0:0:0:0:
320,128,169645,1,8,0:0:0:0:
320,128,169803,1,8,0:0:0:0:
192,128,170119,1,0,0:0:0:0:
320,128,170277,1,8,0:0:0:0:
320,128,170434,1,8,0:0:0:0:
192,128,170592,1,0,0:0:0:0:
320,128,170750,1,8,0:0:0:0:
192,128,170908,1,0,0:0:0:0:
192,256,171224,1,4,0:0:0:0:
320,256,171540,1,12,0:0:0:0:
192,128,171856,1,0,0:0:0:0:
320,128,172013,1,8,0:0:0:0:
192,128,172171,1,0,0:0:0:0:
320,128,172329,1,8,0:0:0:0:
192,128,172487,1,0,0:0:0:0:
320,128,172645,1,8,0:0:0:0:
320,128,172803,1,8,0:0:0:0:
320,128,173119,1,8,0:0:0:0:
320,128,173277,1,8,0:0:0:0:
320,128,173434,1,8,0:0:0:0:
192,128,173592,1,0,0:0:0:0:
192,128,173750,1,0,0:0:0:0:
320,128,173908,1,8,0:0:0:0:
320,128,174066,1,8,0:0:0:0:
192,128,174382,1,0,0:0:0:0:
320,128,174540,1,8,0:0:0:0:
320,128,174856,1,8,0:0:0:0:
192,128,175013,1,0,0:0:0:0:
320,128,175171,1,8,0:0:0:0:
320,128,175487,1,8,0:0:0:0:
192,128,175645,1,0,0:0:0:0:
320,128,175803,1,8,0:0:0:0:
320,128,175961,1,8,0:0:0:0:
192,128,176119,1,0,0:0:0:0:
256,192,176277,12,0,177856,0:0:0:0:
